ExtraTorrent.cc - The Largest Bittorent SystemLogin   |   Register
Latest Articles
Most searched
Hot torrents
First Cams
View Torrent Info: The Fate of the Furious 2017 HD-TS x264 AC3-CPG
View Torrent Info: The Boss Baby 2017 720p HD-TS x264 AC3-CPG
View Torrent Info: Before I Fall 2017 HDCAM 700MB x264-DiRG
View Torrent Info: The Belko Experiment 2017 HDCAM 700MB x264-DiRG
Hot torrents
XVID DIVX
View Torrent Info: The.Amityville.Horror.2005.BRRip.XViD-ETRG
View Torrent Info: Only for One Night.2016.HDRip.XviD.AC3-EVO
View Torrent Info: Instant.Death.2017.DVDRip.XviD.AC3-EVO
View Torrent Info: Tramps.2017.HDRip.XviD.AC3-EVO
Hot torrents
H264 X264
View Torrent Info: Wanted (2008) 720p BluRay x264 DTS Soup
View Torrent Info: Get.Out.2017.720p.HC.HDRip.XviD.AC3-EVO[EtHD]
View Torrent Info: Rings.2017.1080p.BRRip.x264.AAC-ETRG
View Torrent Info: Hacker.2016.720p.BRRip.x264.AAC-ETRG
Hot torrents
BluRay, 4k UHD
View Torrent Info: SWORD MASTER 2016 1080p BluRay x264 DTSHD 5.1 Subs -DDR
View Torrent Info: Savage.Dog.2017.BLURAY.1080p.x264.DTSHD5.1-DDR
View Torrent Info: The.Age.of.Shadows.2016.Multi.BluRay.1080p.AVC.DTS-HD.MA5.1 -DDR
View Torrent Info: WALL-E (2008) 1080p BluRay x264 AC3 Soup
Hot torrents
Television
View Torrent Info: UFC Fight Night 108 WEB-DL H264 Fight-BB
View Torrent Info: The.Son.S01E04.WEB-DL.x264-FUM[ettv]
View Torrent Info: Samurai.Jack.S05E06.WEB-DL.x264-FUM[ettv]
View Torrent Info: Training.Day.S01E09.WEB-DL.x264-FUM[ettv]
View Torrent Info: Norm Of The North (2016) x264 720p BluRay Eng Subs {Dual Audio} [Hindi ORG DD 2.0   English 5.1] Exclusive By DREDD
View Torrent Info: Oh My Friend (2011) 1080p Bluray x264 DTSHD 5.1 -DDR
View Torrent Info: Krishnam Vande Jagadgurum (2012) 1080p Bluray x264 DTSHD 5.1 -DDR
View Torrent Info: Vinnaithaandi Varuvaayaa (2010) 1080p Bluray x264 DTSHD 5.1 -DDR
30s
Chat
To add new messages please Login or Register for FREE
Warning! Protect Yourself from Lawsuits and Fines!
Your IP Address is 54.198.159.117.   Location is United States
Your IP Address is visible to EVERYONE. Hide your IP ADDRESS with a VPN while torrenting!
ExtraTorrent strongly recommends using Trust.Zone VPN to anonymize your torrenting. It's FREE!
Hide my IP address!

ExtraTorrent.cc > Categories > Movies torrents > Sci-Fi torrents


Browse Movies torrents

Doctor Strange 2016 1080p Bluray HEVC10 Multi DTSHD 7.1 -DDR torrent


Download torrent:Download Doctor Strange 2016 1080p Bluray HEVC10 Multi DTSHD 7.1 -DDR torrentMagnet linkBookmark Torrent: Doctor Strange 2016 1080p Bluray HEVC10 Multi DTSHD 7.1 -DDR Doctor Strange 2016 1080p Bluray HEVC10 Multi DTSHD 7.1 -DDR torrent
Info hash:ED00356168AD86FE99AFF87233D6AF8698765F51
Category:Categories > Movies torrents > Sci-Fi torrents
Trackers:
15   View all torrent trackers >
Health:
 seeds: 1662, leechers: 822| Update >
Torrent language:English English
Total Size:9.13 GB
Number of files:
4   View torrent files >
Torrent status:Added by trusted uploader Added by trusted uploader Vip MemberTrusted UploaderET junkieET loverSuperman
Uploader:Vip MemberTrusted UploaderET junkieET loverSuperman
Torrent added:2017-02-17 12:03:03   |   Last edit: 2017-02-17 12:08:00 by Vip MemberTrusted UploaderET junkieET loverSuperman
Users rating:10.0 / 10, total 5 votes.  Latest by: , , , Turtle, Site FriendET junkieET loverSuperman
Doctor Strange 2016 1080p Bluray HEVC10 Multi DTSHD 7.1 -DDR


Download Doctor Strange 2016 1080p Bluray HEVC10 Multi DTSHD 7.1 -DDR torrent




Your IP Address is 54.198.159.117.   Location is United States
Your Internet Provider and Government can track your torrent activity!  Hide your IP ADDRESS with a VPN!
ExtraTorrent strongly recommends using Trust.Zone VPN to anonymize your torrenting. It's FREE!

HIDE ME NOW
Torrent Description
ddr_logo.png
cb20a7fe0a0ce9fd32b661f58ecf8754.jpg

1080p BluRay HEVC 10 Bits

English DTSHD-MA 7.1 Audio
French AAC 5.1 Audio
Spanish AAC 5.1 Audio

English French Spanish Subs

SCREENSHOTS
095c52fae10950fea3ccced06b5544dc.th.png c2233b8898d846466facc038ab4ff748.th.png 5831449a9bf29b01505bcd6e21c95656.th.png 0efe9e0e30b6b0cc220a1617a6208188.th.png a4cf35f35d054455b1494a3b571e8225.th.png 1a5cc931206c4e7ca9385be5105cd11a.th.png 0a3cd5aadbdb6a7f835f3acf1b51ca3f.th.png 2b283b803d9756302e19f1d035ee2e22.th.png 4ab84b32e4c3abf695f7d10fa4d91803.th.png aa2e6d838a7dc3267f5e3d88f3b39488.th.png

SPECS


Source: Blu-ray @ M-TEAM

Format : Matroska
File size : 9.10 GiB
Duration : 1 h 54 min
Overall bit rate : 11.3 Mb/s

Video
Format : HEVC
Format profile : Main [email protected]@Main
Bit rate : 5 767 kb/s
Width : 1 920 pixels
Height : 800 pixels
Display aspect ratio : 2.40:1
Frame rate : 23.976 (24000/1001) FPS
Bit depth : 10 bits
Stream size : 4.63 GiB (51%)
Color primaries : BT.709

Audio #1
Format : DTS
Format profile : MA / Core
Bit rate : 5 130 kb/s / 1 509 kb/s
Channel(s) : 8 channels / 6 channels
Bit depth : 24 bits
Stream size : 4.12 GiB (45%)
Language : English

Audio #2
Format : AAC
Format profile : LC
Bit rate : 192 kb/s
Channel(s) : 6 channels
Stream size : 158 MiB (2%)
Language : French

Audio #3
Format : AAC
Format profile : LC
Bit rate : 192 kb/s
Channel(s) : 6 channels
Stream size : 158 MiB (2%)
Language : Spanish

Chapters : YES


SAMPLE Included

A DDR Exclusive Encode

Download Doctor Strange 2016 1080p Bluray HEVC10 Multi DTSHD 7.1 -DDR torrent


Related Torrents


Comments (please add your comment)
1
posted by Site FriendET junkieET loverSuperman (2017-02-17 12:36:29)
Funky_Axl avatarthanx


2
posted by (2017-02-17 19:18:41)
MrKoKoRaZZ avatarThanks TeamDDR.


3
posted by (2017-02-18 01:14:08)
Jason1974 avatarpotplayer supports the HEVC format, i quit using VLC player & now only use potplayer


4
posted by (2017-02-18 01:21:30)
I_Ghost avatarThanks But Needed Only HEVC 8Bit to Play for Every One


5
posted by ET junkieSuperman (2017-02-18 15:53:19)
boxopus avatarthnx TeamDDR


6
posted by (2017-02-20 08:07:31)
Rafai avatargreat quality *_*





Home - Browse Torrents - Upload Torrent - Stat - Forum - FAQ - Login
ExtraTorrent.cc is in compliance with copyrights
Can't load ExtraTorrent? Try our official mirrors: etmirror.com - etproxy.com - extratorrentonline.com - extratorrentlive.com
2006-2017 ExtraTorrent.cc1