ExtraTorrent.cc - The Largest Bittorent SystemLogin   |   Register
Latest Articles
Most searched
Hot torrents
First Cams
View Torrent Info: The Fate of the Furious 2017 HD-TS x264 AC3-CPG
View Torrent Info: The Boss Baby 2017 720p HD-TS x264 AC3-CPG
View Torrent Info: Before I Fall 2017 HDCAM 700MB x264-DiRG
View Torrent Info: The Belko Experiment 2017 HDCAM 700MB x264-DiRG
Hot torrents
XVID DIVX
View Torrent Info: The.Amityville.Horror.2005.BRRip.XViD-ETRG
View Torrent Info: Only for One Night.2016.HDRip.XviD.AC3-EVO
View Torrent Info: Instant.Death.2017.DVDRip.XviD.AC3-EVO
View Torrent Info: Tramps.2017.HDRip.XviD.AC3-EVO
Hot torrents
H264 X264
View Torrent Info: Wanted (2008) 720p BluRay x264 DTS Soup
View Torrent Info: Get.Out.2017.720p.HC.HDRip.XviD.AC3-EVO[EtHD]
View Torrent Info: Rings.2017.1080p.BRRip.x264.AAC-ETRG
View Torrent Info: Hacker.2016.720p.BRRip.x264.AAC-ETRG
Hot torrents
BluRay, 4k UHD
View Torrent Info: SWORD MASTER 2016 1080p BluRay x264 DTSHD 5.1 Subs -DDR
View Torrent Info: Savage.Dog.2017.BLURAY.1080p.x264.DTSHD5.1-DDR
View Torrent Info: The.Age.of.Shadows.2016.Multi.BluRay.1080p.AVC.DTS-HD.MA5.1 -DDR
View Torrent Info: WALL-E (2008) 1080p BluRay x264 AC3 Soup
Hot torrents
Television
View Torrent Info: UFC Fight Night 108 WEB-DL H264 Fight-BB
View Torrent Info: The.Son.S01E04.WEB-DL.x264-FUM[ettv]
View Torrent Info: Samurai.Jack.S05E06.WEB-DL.x264-FUM[ettv]
View Torrent Info: Training.Day.S01E09.WEB-DL.x264-FUM[ettv]
View Torrent Info: Norm Of The North (2016) x264 720p BluRay Eng Subs {Dual Audio} [Hindi ORG DD 2.0   English 5.1] Exclusive By DREDD
View Torrent Info: Oh My Friend (2011) 1080p Bluray x264 DTSHD 5.1 -DDR
View Torrent Info: Krishnam Vande Jagadgurum (2012) 1080p Bluray x264 DTSHD 5.1 -DDR
View Torrent Info: Vinnaithaandi Varuvaayaa (2010) 1080p Bluray x264 DTSHD 5.1 -DDR
30s
Chat
To add new messages please Login or Register for FREE
Warning! Protect Yourself from Lawsuits and Fines!
Your IP Address is 54.198.159.117.   Location is United States
Your IP Address is visible to EVERYONE. Hide your IP ADDRESS with a VPN while torrenting!
ExtraTorrent strongly recommends using Trust.Zone VPN to anonymize your torrenting. It's FREE!
Hide my IP address!

ExtraTorrent.cc > Categories > Movies torrents > Bollywood/Desi torrents


Browse Movies torrents

U.Me.Aur.Ghar.2017.1080p.WEB-DL.VP9.OPUS.ESub-DDR torrent


Download torrent:Download U.Me.Aur.Ghar.2017.1080p.WEB-DL.VP9.OPUS.ESub-DDR torrentMagnet linkBookmark Torrent: U.Me.Aur.Ghar.2017.1080p.WEB-DL.VP9.OPUS.ESub-DDR U.Me.Aur.Ghar.2017.1080p.WEB-DL.VP9.OPUS.ESub-DDR torrent
Info hash:720329D003D4A9B32668AA6D06B8B8606DF808E2
Category:Categories > Movies torrents > Bollywood/Desi torrents
Trackers:
13   View all torrent trackers >
Health:
 seeds: 385, leechers: 123| Update >
Torrent language:Hindi Hindi
Total Size:1.17 GB
Number of files:
13   View torrent files >
Torrent status:Added by trusted uploader Added by trusted uploader Vip MemberTrusted UploaderET junkieET loverSuperman
Uploader:Vip MemberTrusted UploaderET junkieET loverSuperman
Torrent added:2017-02-17 07:45:47
Users rating:10.0 / 10, total 5 votes.  Latest by: , , , , ET baby
U.Me.Aur.Ghar.2017.1080p.WEB-DL.VP9.OPUS.ESub-DDR


Download U.Me.Aur.Ghar.2017.1080p.WEB-DL.VP9.OPUS.ESub-DDR torrent




Your IP Address is 54.198.159.117.   Location is United States
Your Internet Provider and Government can track your torrent activity!  Hide your IP ADDRESS with a VPN!
ExtraTorrent strongly recommends using Trust.Zone VPN to anonymize your torrenting. It's FREE!

HIDE ME NOW
Torrent Description
DDR-28.png

~ U, Me Aur Ghar ~
(A film by Web Talkies)

** 1080p / WEB-DL / VP9/ Opus 2.0/ ESubs **


d35015cc7b777e90675f19138161de67.md.jpg

Code:
General Complete name : U.Me.Aur.Ghar.2017.1080p.WEB-DL.VP9.OPUS.ESub-DDR.mkv Format : Matroska Format version : Version 4 / Version 2 File size : 1.15 GiB Duration : 1 h 32 min Overall bit rate : 1 784 kb/s Encoded date : UTC 2017-02-17 06:55:16 Writing application : mkvmerge v9.7.1 ('Pandemonium') 64bit Writing library : libebml v1.3.4 + libmatroska v1.4.5 Video ID : 1 Format : VP9 Codec ID : V_VP9 Duration : 1 h 32 min Bit rate : 1 655 kb/s Width : 1 920 pixels Height : 1 080 pixels Display aspect ratio : 16:9 Frame rate mode : Constant Frame rate : 25.000 FPS Bits/(Pixel*Frame) : 0.032 Stream size : 1.07 GiB (93%) Title : DDR Default : Yes Forced : No Audio ID : 2 Format : Opus Codec ID : A_OPUS Duration : 1 h 32 min Bit rate : 128 kb/s Channel(s) : 2 channels Channel positions : Front: L R Sampling rate : 48.0 kHz Frame rate : 50.000 FPS (960 spf) Compression mode : Lossy Stream size : 83.9 MiB (7%) Title : DDR Language : Hindi Default : Yes Forced : No Text ID : 3 Format : UTF-8 Codec ID : S_TEXT/UTF8 Codec ID/Info : UTF-8 Plain Text Duration : 1 h 32 min Bit rate : 69 b/s Count of elements : 1428 Stream size : 46.6 KiB (0%) Title : DDR Language : English Default : Yes Forced : No


ddrss.png


90b92c733479fc5afc0bd1eac3a77416.th.png f609ded004134e9836b4362b32712c04.th.png 2399ae0fde3ea478ee126a48217f1bf3.th.png 9f2ef7e2175bc2db33d570276ddf78ee.th.png ea6c2d0f96187f7892a390a9b21e2d1c.th.png d8746bfbaab5006ccb10f82ffeecbcfb.th.png 597b8f6834e28c59fa9bb535b20a021e.th.png b376034398708d5cfd367a3914172ba3.th.png 544f2c536247bcc82c5a8915cdcc8dc2.th.png 8175bede69daee090c99d4b152218372.th.png f6a2bc0c4c4b6d15a764f151988d73f6.th.png 538fbbba654942987606d64be549acd2.th.png




A DDR Exclusive Release...

Download U.Me.Aur.Ghar.2017.1080p.WEB-DL.VP9.OPUS.ESub-DDR torrent


Related Torrents


Comments (please add your comment)
1
posted by (2017-02-17 21:50:10)
DFor_DeepakChaturvedi avatarThanks UPLOADER for this one......U.Me.Aur.Ghar.2017.1080p.WEB-DL.VP9.OPUS.ESub-DDR torrent





Home - Browse Torrents - Upload Torrent - Stat - Forum - FAQ - Login
ExtraTorrent.cc is in compliance with copyrights
Can't load ExtraTorrent? Try our official mirrors: etmirror.com - etproxy.com - extratorrentonline.com - extratorrentlive.com
2006-2017 ExtraTorrent.cc4