ExtraTorrent.cc - The Largest Bittorent SystemLogin   |   Register
Latest Articles
Most searched
Hot torrents
First Cams
View Torrent Info: The Fate of the Furious 2017 HD-TS x264 AC3-CPG
View Torrent Info: The Boss Baby 2017 720p HD-TS x264 AC3-CPG
View Torrent Info: Before I Fall 2017 HDCAM 700MB x264-DiRG
View Torrent Info: The Belko Experiment 2017 HDCAM 700MB x264-DiRG
Hot torrents
XVID DIVX
View Torrent Info: The.Amityville.Horror.2005.BRRip.XViD-ETRG
View Torrent Info: Only for One Night.2016.HDRip.XviD.AC3-EVO
View Torrent Info: Instant.Death.2017.DVDRip.XviD.AC3-EVO
View Torrent Info: Tramps.2017.HDRip.XviD.AC3-EVO
Hot torrents
H264 X264
View Torrent Info: Wanted (2008) 720p BluRay x264 DTS Soup
View Torrent Info: Get.Out.2017.720p.HC.HDRip.XviD.AC3-EVO[EtHD]
View Torrent Info: Rings.2017.1080p.BRRip.x264.AAC-ETRG
View Torrent Info: Hacker.2016.720p.BRRip.x264.AAC-ETRG
Hot torrents
BluRay, 4k UHD
View Torrent Info: SWORD MASTER 2016 1080p BluRay x264 DTSHD 5.1 Subs -DDR
View Torrent Info: Savage.Dog.2017.BLURAY.1080p.x264.DTSHD5.1-DDR
View Torrent Info: The.Age.of.Shadows.2016.Multi.BluRay.1080p.AVC.DTS-HD.MA5.1 -DDR
View Torrent Info: WALL-E (2008) 1080p BluRay x264 AC3 Soup
Hot torrents
Television
View Torrent Info: UFC Fight Night 108 WEB-DL H264 Fight-BB
View Torrent Info: The.Son.S01E04.WEB-DL.x264-FUM[ettv]
View Torrent Info: Samurai.Jack.S05E06.WEB-DL.x264-FUM[ettv]
View Torrent Info: Training.Day.S01E09.WEB-DL.x264-FUM[ettv]
View Torrent Info: Norm Of The North (2016) x264 720p BluRay Eng Subs {Dual Audio} [Hindi ORG DD 2.0   English 5.1] Exclusive By DREDD
View Torrent Info: Oh My Friend (2011) 1080p Bluray x264 DTSHD 5.1 -DDR
View Torrent Info: Krishnam Vande Jagadgurum (2012) 1080p Bluray x264 DTSHD 5.1 -DDR
View Torrent Info: Vinnaithaandi Varuvaayaa (2010) 1080p Bluray x264 DTSHD 5.1 -DDR
30s
Chat
To add new messages please Login or Register for FREE
Warning! Protect Yourself from Lawsuits and Fines!
Your IP Address is 54.198.159.117.   Location is United States
Your IP Address is visible to EVERYONE. Hide your IP ADDRESS with a VPN while torrenting!
ExtraTorrent strongly recommends using Trust.Zone VPN to anonymize your torrenting. It's FREE!
Hide my IP address!

ExtraTorrent.cc > Categories > Movies torrents > Sci-Fi torrents


Browse Movies torrents

The Amazing SpiderMan-2 2014 2160p UHD BluRay HEVC10 Multi DTSHD 5.1 -DDR torrent


Download torrent:Download The Amazing SpiderMan-2 2014 2160p UHD BluRay HEVC10 Multi DTSHD 5.1 -DDR torrentMagnet linkBookmark Torrent: The Amazing SpiderMan-2 2014 2160p UHD BluRay HEVC10 Multi DTSHD 5.1 -DDR The Amazing SpiderMan-2 2014 2160p UHD BluRay HEVC10 Multi DTSHD 5.1 -DDR torrent
Info hash:978BD0788F50446E3B1D77931D9830E153000501
Category:Categories > Movies torrents > Sci-Fi torrents
Trackers:
15   View all torrent trackers >
Health:
 seeds: 166, leechers: 223| Update >
Torrent language:English English
Total Size:34.78 GB
Number of files:
4   View torrent files >
Torrent status:Added by trusted uploader Added by trusted uploader Vip MemberTrusted UploaderET junkieET loverSuperman
Uploader:Vip MemberTrusted UploaderET junkieET loverSuperman
Torrent added:2017-02-17 04:52:35   |   Last edit: 2017-02-18 16:55:25 by Vip MemberTrusted UploaderET junkieET loverSuperman
Users rating:10.0 / 10, total 4 votes.  Latest by: ET lover, Trusted UploaderSite Friend, Site FriendET junkieET loverSuperman, Turtle
The Amazing SpiderMan-2 2014 2160p UHD BluRay HEVC10 Multi DTSHD 5.1 -DDR


Download The Amazing SpiderMan-2 2014 2160p UHD BluRay HEVC10 Multi DTSHD 5.1 -DDR torrent




Your IP Address is 54.198.159.117.   Location is United States
Your Internet Provider and Government can track your torrent activity!  Hide your IP ADDRESS with a VPN!
ExtraTorrent strongly recommends using Trust.Zone VPN to anonymize your torrenting. It's FREE!

HIDE ME NOW
Torrent Description
ddr_logo.png
1d478898ddf89b40c608a7637cb928e8.jpg

2160p 4K UltraHD BluRay Rip
HEVC 10 Bits BT709

English DTSHD-MA 5.1 Audio
French DTSHD-MA 5.1 Audio


English, French Subs

SCREENSHOTS
d506886c87296afd32128d51daade768.th.png 3ddc771d39c41536aca57e3b9a0192a5.th.png 3236abc251784f6276868d99b28bce70.th.png 0a227234aef3ec881350f71b109f8766.th.png 92415ccdce0f8498d984d11552583586.th.png a233136332daca11ff43a4066ec48387.th.png 6ca862303337746149ddf81c9e1f54b8.th.png

SPECS


Source : 4K UHD BluRay @ Zeus (Thanks)
Format : Matroska
File size : 34.7 GiB
Duration : 2 h 21 min
Overall bit rate : 35.1 Mb/s

Video
Format : HEVC
Format profile : Main [email protected]@Main
Bit rate : 23.3 Mb/s
Width : 3 840 pixels
Height : 2 160 pixels
Display aspect ratio : 16:9
Frame rate : 23.976 (24000/1001) FPS
Bit depth : 10 bits
Stream size : 30.0 GiB (86%)
Color primaries : BT.709

Audio #1
Format : DTS MA / Core
Bit rate : 2 378 kb/s / 1 509 kb/s
Channel(s) : 6 channels
Stream size : 2.35 GiB (7%)
Language : French

Audio #2
Format : DTS MA / Core
Bit rate : 2 374 kb/s / 1 509 kb/s
Channel(s) : 6 channels
Stream size : 2.35 GiB (7%)
Language : English

Chapters : YES


SAMPLE Included

A DDR Exclusive Release

Download The Amazing SpiderMan-2 2014 2160p UHD BluRay HEVC10 Multi DTSHD 5.1 -DDR torrent


Related Torrents


Comments (please add your comment)
1
posted by Site FriendET junkieET loverSuperman (2017-02-17 20:43:34)
Funky_Axl avatarawesome, thanx


2
posted by Trusted UploaderSite Friend (2017-02-18 13:42:49)
EtLesnar avatarOMG thx


3
posted by (2017-02-18 14:48:38)
No avataryour description shows 8 bit ? but in tittle its 10 bit ?
can any downloader confirms ?

Video
Format : HEVC
Format profile : Main [email protected]@Main
Bit rate : 23.3 Mb/s
Width : 3 840 pixels
Height : 2 160 pixels
Display aspect ratio : 16:9
Frame rate : 23.976 (24000/1001) FPS
Bit depth : 8 bits
Stream size : 30.0 GiB (86%)
Color primaries : BT.709


4
posted by ET junkieSuperman (2017-02-18 15:55:43)
boxopus avatarthnx TeamDDR


5
posted by Vip MemberTrusted UploaderET junkieET loverSuperman (2017-02-18 16:56:16)
TeamDDR avatar@ xxdavekillerxx

Its a typo mistake. The encode is in 10 bits. Corrected.


6
posted by ET lover (2017-02-24 03:30:11)
kurupam avatarVery Good Share...thanks





Home - Browse Torrents - Upload Torrent - Stat - Forum - FAQ - Login
ExtraTorrent.cc is in compliance with copyrights
Can't load ExtraTorrent? Try our official mirrors: etmirror.com - etproxy.com - extratorrentonline.com - extratorrentlive.com
2006-2017 ExtraTorrent.cc4